The Walking Dead 2011 [Temporada 2][HDTV][Sub Español]

Tema en 'Series y Tv' iniciado por manay19922, 18 de Octubre de 2011.

  1. manay19922

    manay19922 Bananero nuevo Expulsado

    Registrado:
    13 de Octubre de 2011
    Mensajes:
    31
    Me Gusta recibidos:
    29
    [​IMG]

    The Walking Dead 2011 [Temporada 2][HDTV][Sub Español] → Peliculas
    The Walking Dead 2011 [Temporada 2][HDTV][Sub Español]

    The Walking Dead | Temporada 2 | HDTV | Sub Español | 550 MB

    The Walking Dead es una serie de televisión desarrollada por Frank Darabont y basada en la serie de cómics homónima creada por Robert Kirkman y Tony Moore. fue estrenado por la cadena AMC el 31 de octubre de 2010.


    Sinopsis

    The Walking Dead cuenta la historia de las secuelas de un apocalipsis zombi y sigue a un pequeño grupo de supervivientes viajando a través de Estados Unidos en busca de un nuevo hogar lejos de las hordas de zombies. Después de despertar de un coma en un hospital abandonado, el oficial de policía Rick Grimes se da cuenta de que el mundo que conocía no existe, devastado por una epidemia zombie de proporciones apocalípticas. En los alrededores, en las afueras de Atlanta, un pequeño campamento lucha por sobrevivir mientras que los no muertos los acechan a cada momento. El grupo es guiado por Rick Grimes, quien era un oficial de policía en el viejo mundo. Mientras su situación se vuelve más y más sombría, la desesperación del grupo por sobrevivir los obliga a hacer casi cualquier cosa para mantenerse con vida.

    Temporada 2

    Temporada 2, Episodio 1: What Lies Ahead
    Transmisión original—16 octubre 2011
    Temporada 2, Episodio 2: Bloodletting
    Transmisión original—23 octubre 2011
    Temporada 2, Episodio 3: Save the Last One
    Transmisión original—30 octubre 2011
    Temporada 2, Episodio 4: Cherokee Rose
    Transmisión original—6 noviembre 2011
    Temporada 2, Episodio 5: Chupacabra
    Transmisión original—13 noviembre 2011
    Temporada 2, Episodio 6: Secrets
    Transmisión original—20 noviembre 2011
    Temporada 2, Episodio 7: Pretty Much Dead Already
    Transmisión original—27 noviembre 2011

    Info Codificacion
    General
    Complete name : The.Walking.Dead.S02E01.HDTV.by_almacervecera.avi
    Format : AVI
    Format/Info : Audio Video Interleave
    File size : 550 MiB
    Duration : 1h 3mn
    Overall bit rate : 1 215 Kbps
    Writing application : Some super fast AVI muxer

    Video
    ID : 0
    Format : MPEG-4 Visual
    Format profile : Advanced Simple@L5
    Format settings, BVOP : 2
    Format settings, QPel : No
    Format settings, GMC : No warppoints
    Format settings, Matrix : Default (H.263)
    Codec ID : XVID
    Codec ID/Hint : XviD
    Duration : 1h 3mn
    Bit rate : 1 051 Kbps
    Width : 624 pixels
    Height : 352 pixels
    Display aspect ratio : 16:9
    Frame rate : 23.976 fps
    Color space : YUV
    Chroma subsampling : 4:2:0
    Bit depth : 8 bits
    Scan type : Progressive
    Compression mode : Lossy
    Bits/(Pixel*Frame) : 0.200
    Stream size : 476 MiB (87%)
    Writing library : XviD 70

    Audio
    ID : 1
    Format : MPEG Audio
    Format version : Version 1
    Format profile : Layer 3
    Codec ID : 55
    Codec ID/Hint : MP3
    Duration : 1h 3mn
    Bit rate mode : Variable
    Bit rate : 151 Kbps
    Channel(s) : 2 channels
    Sampling rate : 48.0 KHz
    Compression mode : Lossy
    Stream size : 68.3 MiB (12%)
    Alignment : Aligned on interleaves
    Interleave, duration : 24 ms (0.58 video frame)
    Interleave, preload duration : 10 ms

    CAPTURAS


    The Walking Dead 2011 [Temporada 2][HDTV][Sub Español]


    Temporada 2 Episodio 1


    The Walking Dead 2011 [Temporada 2][HDTV][Sub Español]


    Sin contraseña | Facil Extraction | 1 Links

    The Walking Dead 2011 [Temporada 2][HDTV][Sub Español]

    http://www.fileserve.com/file/eTWe9ke

    The Walking Dead 2011 [Temporada 2][HDTV][Sub Español]

    http://www.filesonic.com/file/2612655034

    The Walking Dead 2011 [Temporada 2][HDTV][Sub Español]

    http://www.wupload.com/file/439352691

    Mas aporte mios da click aca

    SEGUIME ACA




    Comentarios: 5 Visto: 561 Fecha: Ayer, 14:31 Imprimir

    Autor: almacervecera Añadir a Favoritos:

    85
    1
    2
    3
    4
    5

    ShareThis4 0 0 4


    televisión space MPEG MP3 nuevo zombies lucha XVID
    Comentarios

    Avatar


    Autor: elazotenica

    Fecha: Ayer, 15:30
    Gracias almacervercera, la estaba esperando como pan caliente, se agradece mucho tu aporte y efectividad...
    Artículos: 0 | Comentarios: 349 [Citar] Citar



    Avatar


    Autor: juan pablo gonzalez

    Fecha: Ayer, 18:29
    gracias.....por el aporte......desde hace un año esperandola la segunda temporada.....
    Artículos: 0 | Comentarios: 32 [Citar] Citar



    Avatar


    Autor: vmbuscador

    Fecha: Ayer, 18:44
    Mil gracias.
    Artículos: 0 | Comentarios: 16 [Citar] Citar



    Avatar


    Autor: eruiz

    Fecha: Ayer, 20:28
    asu q chevre la primer tempo fue chevre ahora sera mejor xD
    Artículos: 0 | Comentarios: 43 [Citar] Citar



    Avatar


    Autor: ALBERTO1979

    Fecha: Hoy, 09:29
    ME VALE QUE NO TENGA SUBTITULOS GENIAL APORTE MAN!!!!!!!!!
    Artículos: 0 | Comentarios: 10 [Citar] Citar



    Por cada comentario mato a un gatito

    Escribir Comentario
    [​IMG]

    Temporada 2 Episodio 1

    [​IMG]

    http://www.wupload.com/folder/750141

    Aki la primera temporada!!

    http://www.wupload.com/folder/464246
     
    #1
    A DALLAS890 le gusta esto.
  2. AlfredoCV

    AlfredoCV Bananero nuevo

    Registrado:
    1 de Abril de 2011
    Mensajes:
    11
    Me Gusta recibidos:
    0
    Respuesta: The Walking Dead 2011 [Temporada 2][HDTV][Sub Español]

    Hay compa... La primera temporada lo mejor, pero la segunda, esa novela de buscando a sofia. tiene a mas de uno aburrido... esperemos el proximo cap a ver.
     
    #2
  3. A.V.P

    A.V.P Bananero reconocido

    Registrado:
    4 de Junio de 2009
    Mensajes:
    3.462
    Me Gusta recibidos:
    86
    Respuesta: The Walking Dead 2011 [Temporada 2][HDTV][Sub Español]

    jajaj sikas pana ya es hora que aparesca el cadaver de esta niña o si no que aparesca pero que sigan con la historia
     
    #3
  4. Juan Pachanga

    Juan Pachanga Bananero reconocido

    Registrado:
    5 de Febrero de 2008
    Mensajes:
    7
    Me Gusta recibidos:
    3.992
    Respuesta: The Walking Dead 2011 [Temporada 2][HDTV][Sub Español]

    aparece sophia en el granero y la levantan a balin
     
    #4

Compartir esta página